osu file format v14

[General]
AudioFilename: kankore.mp3
AudioLeadIn: 1500
PreviewTime: 60137
Countdown: 0
SampleSet: Normal
StackLeniency: 0.7
Mode: 1
LetterboxInBreaks: 0
WidescreenStoryboard: 1

[Editor]
DistanceSpacing: 1.2
BeatDivisor: 6
GridSize: 32
TimelineZoom: 2.3

[Metadata]
Title:Just Moving On Now
TitleUnicode:Just Moving On Now
Artist:AKINO from bless4
ArtistUnicode:AKINO from bless4
Creator:chaica
Version:YOUTA‘s Super Hell Oni
Source:
Tags:艦隊これくしょん 艦これ kantai collection kancolle 俺 youtaees hori_159 labyr hatano_mikuru x_yuuki yuzu__rinrin asuasu_yura toara_fict pm____ judydanny iceoc blackhairend alecreit seiichiz
BeatmapID:789360
BeatmapSetID:353941

[Difficulty]
HPDrainRate:5
CircleSize:5
OverallDifficulty:5
ApproachRate:5
SliderMultiplier:1.4
SliderTickRate:1

[Events]
//Background and Video events
0,0,"youtasan.jpg",0,30
//Break Periods
//Storyboard Layer 0 (Background)
//Storyboard Layer 1 (Fail)
//Storyboard Layer 2 (Pass)
//Storyboard Layer 3 (Foreground)
//Storyboard Sound Samples

[TimingPoints]
1273,324.324324324324,4,1,0,50,1,0
1273,-133.333333333333,4,1,0,50,0,0
8083,-100,4,1,0,70,0,0
10840,-90.9090909090909,4,1,0,70,0,0
27218,-133.333333333333,4,1,0,20,0,0
36948,-117.647058823529,4,1,0,60,0,0
37435,-100,4,1,0,60,0,0
60786,-90.9090909090909,4,1,0,70,0,0
60948,-90.9090909090909,4,1,0,70,0,1
80894,-100,4,1,0,60,0,1
81705,-100,4,1,0,60,0,0
87056,-133.333333333333,4,1,0,60,0,0

[HitObjects]
256,192,1273,5,0,0:0:0:0:
256,192,1759,1,8,0:0:0:0:
256,192,2245,1,0,0:0:0:0:
256,192,2570,1,0,0:0:0:0:
256,192,3056,1,8,0:0:0:0:
256,192,3543,1,0,0:0:0:0:
256,192,3867,1,0,0:0:0:0:
256,192,4516,1,8,0:0:0:0:
256,192,5164,1,0,0:0:0:0:
256,192,5813,1,8,0:0:0:0:
256,192,6137,1,0,0:0:0:0:
256,192,6300,1,0,0:0:0:0:
256,192,6462,1,8,0:0:0:0:
256,192,6948,1,8,0:0:0:0:
256,192,7435,1,8,0:0:0:0:
256,192,7759,1,0,0:0:0:0:
256,192,7921,1,0,0:0:0:0:
192,192,8083,1,0,0:0:0:0:
256,160,8245,1,8,0:0:0:0:
256,160,8299,1,8,0:0:0:0:
256,160,8353,1,8,0:0:0:0:
256,160,8407,1,0,0:0:0:0:
192,128,8570,1,0,0:0:0:0:
256,192,8732,1,8,0:0:0:0:
256,192,8786,1,8,0:0:0:0:
256,192,8840,1,0,0:0:0:0:
256,192,8894,1,0,0:0:0:0:
256,192,8948,1,0,0:0:0:0:
256,192,9002,1,0,0:0:0:0:
256,192,9056,1,8,0:0:0:0:
256,192,9381,1,0,0:0:0:0:
256,192,9543,1,0,0:0:0:0:
256,192,9705,1,0,0:0:0:0:
256,192,9867,1,0,0:0:0:0:
256,192,9921,1,0,0:0:0:0:
256,192,9975,1,0,0:0:0:0:
224,192,10029,1,0,0:0:0:0:
224,192,10083,1,0,0:0:0:0:
224,192,10137,1,0,0:0:0:0:
224,192,10191,1,8,0:0:0:0:
256,160,10840,1,0,0:0:0:0:
256,160,10921,1,0,0:0:0:0:
256,192,11002,1,8,0:0:0:0:
256,192,11043,1,8,0:0:0:0:
256,192,11083,1,8,0:0:0:0:
256,192,11124,1,8,0:0:0:0:
256,160,11164,1,8,0:0:0:0:
256,160,11218,1,8,0:0:0:0:
256,160,11272,1,8,0:0:0:0:
256,160,11327,1,8,0:0:0:0:
256,160,11381,1,8,0:0:0:0:
256,224,11435,1,8,0:0:0:0:
256,160,11489,1,0,0:0:0:0:
256,192,11813,1,0,0:0:0:0:
256,192,11975,1,8,0:0:0:0:
256,192,12137,1,0,0:0:0:0:
256,192,12300,1,8,0:0:0:0:
256,192,12381,1,8,0:0:0:0:
256,192,12462,1,0,0:0:0:0:
256,192,12543,1,0,0:0:0:0:
256,192,12624,1,8,0:0:0:0:
256,192,12786,1,0,0:0:0:0:
256,192,12948,1,8,0:0:0:0:
256,192,13110,1,0,0:0:0:0:
256,192,13272,1,0,0:0:0:0:
256,192,13435,1,8,0:0:0:0:
256,192,13759,1,0,0:0:0:0:
256,192,13840,1,0,0:0:0:0:
256,192,13921,1,8,0:0:0:0:
256,192,14083,1,0,0:0:0:0:
256,192,14408,1,0,0:0:0:0:
256,192,14570,1,8,0:0:0:0:
256,192,14894,1,0,0:0:0:0:
256,192,15056,1,0,0:0:0:0:
256,192,15218,1,8,0:0:0:0:
256,192,15381,1,8,0:0:0:0:
256,192,15462,1,8,0:0:0:0:
256,192,15543,1,0,0:0:0:0:
256,192,15705,1,8,0:0:0:0:
256,192,15867,1,0,0:0:0:0:
256,192,16029,1,0,0:0:0:0:
256,192,16191,1,8,0:0:0:0:
256,192,16354,1,0,0:0:0:0:
256,192,16435,1,0,0:0:0:0:
224,192,16516,1,8,0:0:0:0:
224,192,16570,1,8,0:0:0:0:
224,192,16624,1,8,0:0:0:0:
224,192,16678,1,8,0:0:0:0:
224,192,17002,1,0,0:0:0:0:
224,192,17164,1,8,0:0:0:0:
224,192,17327,1,0,0:0:0:0:
224,192,17408,1,0,0:0:0:0:
224,192,17489,1,0,0:0:0:0:
224,192,17651,1,0,0:0:0:0:
224,192,17813,1,8,0:0:0:0:
224,192,17975,1,0,0:0:0:0:
224,192,18137,1,8,0:0:0:0:
224,192,18218,1,8,0:0:0:0:
224,192,18300,1,0,0:0:0:0:
224,192,18381,1,0,0:0:0:0:
224,192,18462,1,8,0:0:0:0:
224,192,18624,1,0,0:0:0:0:
224,192,18786,1,8,0:0:0:0:
224,192,18948,1,8,0:0:0:0:
224,192,19110,1,0,0:0:0:0:
224,192,19272,1,8,0:0:0:0:
256,224,19435,1,12,0:0:0:0:
256,224,19597,1,0,0:0:0:0:
256,224,19678,1,0,0:0:0:0:
256,224,19759,1,0,0:0:0:0:
256,224,19921,1,12,0:0:0:0:
256,224,20083,1,0,0:0:0:0:
256,224,20164,1,0,0:0:0:0:
256,224,20245,1,0,0:0:0:0:
256,224,20408,1,12,0:0:0:0:
256,224,20570,1,0,0:0:0:0:
256,224,20651,1,0,0:0:0:0:
256,224,20732,1,0,0:0:0:0:
256,224,20894,1,0,0:0:0:0:
256,224,21056,1,8,0:0:0:0:
256,224,21137,1,8,0:0:0:0:
256,224,21218,1,0,0:0:0:0:
256,224,21300,1,0,0:0:0:0:
256,224,21381,1,8,0:0:0:0:
256,224,21462,1,0,0:0:0:0:
256,224,21543,1,8,0:0:0:0:
256,224,21624,1,0,0:0:0:0:
256,224,21705,1,8,0:0:0:0:
256,224,21759,1,8,0:0:0:0:
256,224,21813,1,0,0:0:0:0:
256,224,21867,1,0,0:0:0:0:
256,224,21921,1,0,0:0:0:0:
256,224,21975,1,0,0:0:0:0:
256,224,22029,1,8,0:0:0:0:
256,224,22110,1,0,0:0:0:0:
256,224,22191,1,0,0:0:0:0:
256,224,22272,1,0,0:0:0:0:
256,224,22354,1,8,0:0:0:0:
256,224,22435,1,0,0:0:0:0:
256,224,22516,1,0,0:0:0:0:
256,224,22597,1,0,0:0:0:0:
256,224,22678,1,8,0:0:0:0:
256,224,22759,1,0,0:0:0:0:
256,224,22840,1,8,0:0:0:0:
256,224,23002,1,8,0:0:0:0:
256,224,23164,1,12,0:0:0:0:
256,224,23489,1,4,0:0:0:0:
256,192,23813,1,12,0:0:0:0:
256,192,24137,1,4,0:0:0:0:
256,192,24462,1,4,0:0:0:0:
288,192,24786,1,0,0:0:0:0:
288,192,24948,1,8,0:0:0:0:
320,224,25029,1,0,0:0:0:0:
288,192,25110,1,0,0:0:0:0:
288,192,25272,1,0,0:0:0:0:
288,192,25435,1,8,0:0:0:0:
288,192,25597,1,8,0:0:0:0:
288,192,25759,1,0,0:0:0:0:
320,192,26083,1,8,0:0:0:0:
320,192,26164,1,8,0:0:0:0:
320,192,26245,1,0,0:0:0:0:
320,192,26408,1,8,0:0:0:0:
288,192,26570,1,4,0:0:0:0:
288,192,26732,1,4,0:0:0:0:
256,192,27218,1,4,0:0:0:0:
320,192,27381,1,0,0:0:0:0:
320,192,27543,1,8,0:0:0:0:
320,192,27705,1,0,0:0:0:0:
320,192,27867,1,0,0:0:0:0:
320,192,28029,1,0,0:0:0:0:
320,192,28191,1,8,0:0:0:0:
320,192,28354,1,0,0:0:0:0:
320,192,28516,1,0,0:0:0:0:
320,192,28678,1,0,0:0:0:0:
320,192,28840,1,8,0:0:0:0:
320,192,29002,1,0,0:0:0:0:
320,192,29164,1,0,0:0:0:0:
320,192,29327,1,0,0:0:0:0:
320,192,29489,1,8,0:0:0:0:
352,192,29651,1,0,0:0:0:0:
352,192,29813,1,12,0:0:0:0:
352,192,29975,1,0,0:0:0:0:
352,192,30137,1,8,0:0:0:0:
352,192,30300,1,0,0:0:0:0:
352,192,30462,1,0,0:0:0:0:
352,192,30624,1,0,0:0:0:0:
352,192,30786,1,8,0:0:0:0:
352,224,30948,1,0,0:0:0:0:
352,224,31110,1,0,0:0:0:0:
352,224,31272,1,0,0:0:0:0:
352,224,31435,1,8,0:0:0:0:
352,224,31597,1,0,0:0:0:0:
320,192,31759,1,0,0:0:0:0:
320,192,31921,1,0,0:0:0:0:
320,192,32083,1,8,0:0:0:0:
352,192,32245,1,0,0:0:0:0:
352,192,32408,1,12,0:0:0:0:
320,224,32570,1,0,0:0:0:0:
320,224,32732,1,8,0:0:0:0:
320,224,32894,1,0,0:0:0:0:
320,224,33056,1,0,0:0:0:0:
320,224,33218,1,0,0:0:0:0:
320,224,33381,1,8,0:0:0:0:
320,224,33543,1,0,0:0:0:0:
320,224,33705,1,0,0:0:0:0:
320,224,33867,1,0,0:0:0:0:
320,224,34029,1,8,0:0:0:0:
320,224,34191,1,0,0:0:0:0:
320,224,34354,1,0,0:0:0:0:
320,224,34516,1,0,0:0:0:0:
320,224,34678,1,8,0:0:0:0:
352,224,34840,1,0,0:0:0:0:
352,224,35002,1,12,0:0:0:0:
352,224,35164,1,0,0:0:0:0:
352,224,35327,1,8,0:0:0:0:
352,224,35489,1,0,0:0:0:0:
352,224,35651,1,0,0:0:0:0:
352,224,35813,1,0,0:0:0:0:
352,224,35975,1,8,0:0:0:0:
352,224,36137,1,8,0:0:0:0:
256,192,36948,1,4,0:0:0:0:
256,192,37110,1,4,0:0:0:0:
256,192,37435,1,12,0:0:0:0:
256,192,37921,1,8,0:0:0:0:
256,192,38245,1,0,0:0:0:0:
256,192,38408,1,0,0:0:0:0:
256,192,38570,1,8,0:0:0:0:
256,192,38732,1,0,0:0:0:0:
256,192,39056,1,0,0:0:0:0:
256,192,39218,1,8,0:0:0:0:
256,192,39543,1,0,0:0:0:0:
256,192,39705,1,0,0:0:0:0:
256,192,39867,1,8,0:0:0:0:
320,192,40191,1,0,0:0:0:0:
320,192,40516,1,8,0:0:0:0:
320,192,40840,1,0,0:0:0:0:
320,192,41002,1,0,0:0:0:0:
320,192,41164,1,8,0:0:0:0:
352,224,41327,1,0,0:0:0:0:
352,224,41651,1,0,0:0:0:0:
352,224,41813,1,8,0:0:0:0:
352,192,42137,1,0,0:0:0:0:
352,192,42300,1,0,0:0:0:0:
352,192,42462,1,8,0:0:0:0:
352,192,42786,1,0,0:0:0:0:
352,192,43110,1,8,0:0:0:0:
352,192,43435,1,0,0:0:0:0:
352,192,43597,1,0,0:0:0:0:
352,192,43759,1,8,0:0:0:0:
352,160,43921,1,0,0:0:0:0:
352,160,44245,1,0,0:0:0:0:
352,160,44408,1,8,0:0:0:0:
352,192,44570,1,0,0:0:0:0:
352,192,44732,1,0,0:0:0:0:
352,192,44894,1,0,0:0:0:0:
352,192,45056,1,8,0:0:0:0:
352,192,45110,1,0,0:0:0:0:
352,192,45164,1,0,0:0:0:0:
352,192,45218,1,0,0:0:0:0:
352,192,45272,1,0,0:0:0:0:
352,192,45327,1,0,0:0:0:0:
352,192,45381,1,8,0:0:0:0:
352,192,45543,1,0,0:0:0:0:
352,192,45705,1,0,0:0:0:0:
352,192,45867,1,12,0:0:0:0:
352,192,46029,1,0,0:0:0:0:
352,224,46110,1,0,0:0:0:0:
352,192,46191,1,0,0:0:0:0:
352,192,46354,1,12,0:0:0:0:
352,192,46516,1,0,0:0:0:0:
352,192,46678,1,12,0:0:0:0:
352,192,46840,1,0,0:0:0:0:
352,224,46921,1,0,0:0:0:0:
352,192,47002,1,0,0:0:0:0:
352,192,47164,1,12,0:0:0:0:
256,192,47327,1,8,0:0:0:0:
256,192,47381,1,8,0:0:0:0:
256,192,47435,1,8,0:0:0:0:
256,192,47489,1,0,0:0:0:0:
256,192,47570,1,0,0:0:0:0:
256,192,47651,1,8,0:0:0:0:
256,192,47732,1,0,0:0:0:0:
256,192,47813,1,8,0:0:0:0:
256,192,47894,1,8,0:0:0:0:
256,192,47975,1,0,0:0:0:0:
320,192,48300,1,0,0:0:0:0:
288,192,48624,1,0,0:0:0:0:
288,192,48948,1,0,0:0:0:0:
288,192,49272,1,0,0:0:0:0:
288,192,49597,1,0,0:0:0:0:
288,192,49921,1,0,0:0:0:0:
320,192,50083,1,8,0:0:0:0:
288,192,50245,1,0,0:0:0:0:
320,192,50408,1,8,0:0:0:0:
288,192,50570,1,0,0:0:0:0:
288,192,50894,1,0,0:0:0:0:
288,160,51218,1,0,0:0:0:0:
288,160,51543,1,0,0:0:0:0:
288,192,51867,1,0,0:0:0:0:
288,192,52191,1,0,0:0:0:0:
288,192,52516,1,0,0:0:0:0:
288,192,52678,1,8,0:0:0:0:
288,192,52840,1,0,0:0:0:0:
288,192,53002,1,8,0:0:0:0:
288,192,53164,1,0,0:0:0:0:
320,192,53489,1,0,0:0:0:0:
320,192,53813,1,0,0:0:0:0:
320,192,54137,1,0,0:0:0:0:
320,192,54462,1,0,0:0:0:0:
288,192,54624,1,0,0:0:0:0:
288,192,54705,1,0,0:0:0:0:
320,192,54786,1,0,0:0:0:0:
320,192,54948,1,8,0:0:0:0:
320,192,55110,1,0,0:0:0:0:
320,192,55272,1,8,0:0:0:0:
320,192,55435,1,0,0:0:0:0:
224,192,55597,1,0,0:0:0:0:
224,192,55651,1,0,0:0:0:0:
224,192,55705,1,0,0:0:0:0:
224,192,55759,1,8,0:0:0:0:
288,160,56083,1,0,0:0:0:0:
288,160,56245,1,0,0:0:0:0:
288,160,56408,1,8,0:0:0:0:
320,192,56894,1,0,0:0:0:0:
320,192,57218,1,8,0:0:0:0:
288,192,57381,1,8,0:0:0:0:
320,192,57543,1,0,0:0:0:0:
320,192,57705,1,8,0:0:0:0:
320,192,57786,1,8,0:0:0:0:
320,192,57867,1,0,0:0:0:0:
320,192,57948,1,0,0:0:0:0:
320,192,58029,1,8,0:0:0:0:
320,192,58191,1,0,0:0:0:0:
288,192,58354,1,12,0:0:0:0:
288,192,58516,1,0,0:0:0:0:
288,192,58597,1,0,0:0:0:0:
288,192,58678,1,8,0:0:0:0:
288,192,58840,1,8,0:0:0:0:
288,192,58921,1,8,0:0:0:0:
288,192,59002,1,0,0:0:0:0:
288,192,59164,1,8,0:0:0:0:
288,192,59327,1,0,0:0:0:0:
288,192,59489,1,12,0:0:0:0:
288,192,59813,1,4,0:0:0:0:
288,192,59975,1,4,0:0:0:0:
288,192,60137,1,8,0:0:0:0:
288,192,60178,1,8,0:0:0:0:
288,192,60218,1,0,0:0:0:0:
288,192,60259,1,0,0:0:0:0:
288,192,60300,1,8,0:0:0:0:
288,192,60340,1,8,0:0:0:0:
288,192,60381,1,0,0:0:0:0:
288,192,60421,1,0,0:0:0:0:
288,192,60462,1,8,0:0:0:0:
256,224,60786,1,8,0:0:0:0:
288,192,60867,1,8,0:0:0:0:
288,192,60948,1,8,0:0:0:0:
288,192,61029,1,8,0:0:0:0:
288,192,61110,1,0,0:0:0:0:
288,192,61272,1,8,0:0:0:0:
288,192,61435,1,0,0:0:0:0:
288,192,61516,1,0,0:0:0:0:
288,192,61597,1,0,0:0:0:0:
288,192,61759,1,8,0:0:0:0:
288,192,61921,1,0,0:0:0:0:
288,192,62083,1,8,0:0:0:0:
288,192,62164,1,8,0:0:0:0:
288,192,62245,1,8,0:0:0:0:
288,192,62408,1,0,0:0:0:0:
288,192,62570,1,0,0:0:0:0:
288,192,62732,1,8,0:0:0:0:
288,160,62786,1,8,0:0:0:0:
288,160,62840,1,8,0:0:0:0:
288,160,62894,1,0,0:0:0:0:
288,192,62975,1,0,0:0:0:0:
288,192,63056,1,8,0:0:0:0:
288,192,63218,1,0,0:0:0:0:
288,192,63381,1,0,0:0:0:0:
288,192,63462,1,0,0:0:0:0:
288,192,63543,1,8,0:0:0:0:
288,192,63705,1,0,0:0:0:0:
288,192,63867,1,0,0:0:0:0:
288,192,64029,1,8,0:0:0:0:
288,192,64110,1,8,0:0:0:0:
288,192,64191,1,0,0:0:0:0:
288,192,64354,1,0,0:0:0:0:
288,192,64516,1,8,0:0:0:0:
288,192,64678,1,0,0:0:0:0:
288,192,64759,1,0,0:0:0:0:
288,192,64840,1,8,0:0:0:0:
288,192,65002,1,0,0:0:0:0:
288,192,65164,1,8,0:0:0:0:
288,192,65245,1,8,0:0:0:0:
288,192,65327,1,8,0:0:0:0:
288,192,65489,1,8,0:0:0:0:
288,192,65651,1,0,0:0:0:0:
288,192,65732,1,0,0:0:0:0:
288,192,65813,1,8,0:0:0:0:
288,192,65894,1,0,0:0:0:0:
288,192,65975,1,8,0:0:0:0:
288,192,66056,1,8,0:0:0:0:
288,192,66137,1,0,0:0:0:0:
288,192,66300,1,0,0:0:0:0:
288,192,66462,1,8,0:0:0:0:
288,192,66624,1,0,0:0:0:0:
288,192,66786,1,8,0:0:0:0:
288,192,66867,1,8,0:0:0:0:
288,192,66948,1,0,0:0:0:0:
288,192,67110,1,8,0:0:0:0:
288,192,67272,1,0,0:0:0:0:
288,192,67354,1,0,0:0:0:0:
288,192,67435,1,8,0:0:0:0:
288,192,67597,1,0,0:0:0:0:
288,192,67759,1,8,0:0:0:0:
288,192,67921,1,8,0:0:0:0:
288,192,68083,1,0,0:0:0:0:
288,192,68245,1,0,0:0:0:0:
288,192,68408,1,8,0:0:0:0:
288,192,68489,1,0,0:0:0:0:
288,192,68570,1,0,0:0:0:0:
288,192,68651,1,0,0:0:0:0:
288,192,68732,1,8,0:0:0:0:
224,160,68894,1,0,0:0:0:0:
224,160,68948,1,0,0:0:0:0:
224,160,69002,1,0,0:0:0:0:
224,160,69056,1,8,0:0:0:0:
256,192,69218,1,0,0:0:0:0:
256,192,69272,1,0,0:0:0:0:
256,192,69327,1,0,0:0:0:0:
256,192,69381,1,0,0:0:0:0:
256,192,69543,1,0,0:0:0:0:
256,192,69705,1,8,0:0:0:0:
256,192,69759,1,8,0:0:0:0:
256,192,69813,1,8,0:0:0:0:
256,192,69867,1,0,0:0:0:0:
256,192,69921,1,0,0:0:0:0:
256,192,69975,1,0,0:0:0:0:
256,192,70029,1,8,0:0:0:0:
224,192,70191,1,0,0:0:0:0:
224,192,70245,1,0,0:0:0:0:
224,192,70300,1,0,0:0:0:0:
256,192,70354,1,8,0:0:0:0:
256,192,70516,1,0,0:0:0:0:
224,192,70678,1,8,0:0:0:0:
224,192,70718,1,8,0:0:0:0:
224,192,70759,1,0,0:0:0:0:
224,192,70840,1,8,0:0:0:0:
256,160,71002,1,0,0:0:0:0:
256,160,71164,1,0,0:0:0:0:
256,160,71327,1,12,0:0:0:0:
256,160,71489,1,0,0:0:0:0:
256,160,71570,1,0,0:0:0:0:
256,160,71651,1,0,0:0:0:0:
256,160,71813,1,8,0:0:0:0:
256,160,71894,1,8,0:0:0:0:
256,160,71975,1,0,0:0:0:0:
256,160,72137,1,8,0:0:0:0:
256,160,72300,1,0,0:0:0:0:
256,160,72462,1,8,0:0:0:0:
256,160,72543,1,0,0:0:0:0:
256,160,72624,1,0,0:0:0:0:
256,160,72786,1,0,0:0:0:0:
256,128,72948,1,8,0:0:0:0:
256,128,73110,1,8,0:0:0:0:
256,128,73191,1,8,0:0:0:0:
256,128,73272,1,0,0:0:0:0:
256,128,73354,1,0,0:0:0:0:
256,128,73435,1,8,0:0:0:0:
256,128,73597,1,0,0:0:0:0:
256,128,73759,1,8,0:0:0:0:
224,192,73840,1,0,0:0:0:0:
256,128,73921,1,0,0:0:0:0:
256,128,74083,1,0,0:0:0:0:
256,128,74245,1,8,0:0:0:0:
256,128,74408,1,8,0:0:0:0:
256,128,74570,1,0,0:0:0:0:
256,128,74732,1,8,0:0:0:0:
256,128,74813,1,8,0:0:0:0:
256,128,74894,1,0,0:0:0:0:
256,128,75056,1,8,0:0:0:0:
224,192,75218,1,8,0:0:0:0:
224,192,75300,1,8,0:0:0:0:
224,192,75381,1,0,0:0:0:0:
224,192,75543,1,8,0:0:0:0:
224,192,75624,1,8,0:0:0:0:
224,192,75705,1,0,0:0:0:0:
256,160,75867,1,8,0:0:0:0:
256,160,76029,1,0,0:0:0:0:
256,160,76110,1,0,0:0:0:0:
256,160,76191,1,8,0:0:0:0:
256,160,76272,1,0,0:0:0:0:
256,160,76354,1,8,0:0:0:0:
256,160,76435,1,8,0:0:0:0:
256,160,76516,1,8,0:0:0:0:
256,160,76678,1,0,0:0:0:0:
256,160,76840,1,0,0:0:0:0:
256,160,77002,1,8,0:0:0:0:
256,160,77083,1,8,0:0:0:0:
256,160,77164,1,0,0:0:0:0:
256,160,77327,1,0,0:0:0:0:
256,160,77489,1,8,0:0:0:0:
256,160,77651,1,0,0:0:0:0:
256,160,77732,1,0,0:0:0:0:
256,160,77813,1,8,0:0:0:0:
256,160,77975,1,0,0:0:0:0:
288,192,78137,1,0,0:0:0:0:
256,160,78300,1,8,0:0:0:0:
224,128,78381,1,0,0:0:0:0:
224,128,78463,1,8,0:0:0:0:
192,192,78624,1,0,0:0:0:0:
224,160,78786,1,8,0:0:0:0:
224,160,78840,1,8,0:0:0:0:
224,160,78894,1,0,0:0:0:0:
224,160,78948,1,0,0:0:0:0:
224,160,79002,1,0,0:0:0:0:
224,160,79056,1,0,0:0:0:0:
224,160,79110,1,8,0:0:0:0:
256,192,79272,1,0,0:0:0:0:
256,192,79327,1,0,0:0:0:0:
256,192,79381,1,0,0:0:0:0:
256,192,79435,1,0,0:0:0:0:
256,192,79597,1,8,0:0:0:0:
256,192,79759,1,0,0:0:0:0:
256,192,79813,1,0,0:0:0:0:
256,192,79867,1,0,0:0:0:0:
256,192,79921,1,0,0:0:0:0:
256,192,80083,1,8,0:0:0:0:
256,224,80245,1,12,0:0:0:0:
256,192,81056,1,8,0:0:0:0:
256,192,81110,1,8,0:0:0:0:
256,192,81164,1,8,0:0:0:0:
256,192,81218,1,0,0:0:0:0:
256,192,81300,1,0,0:0:0:0:
256,192,81381,1,0,0:0:0:0:
256,192,81462,1,0,0:0:0:0:
256,192,81543,1,0,0:0:0:0:
256,192,81705,1,4,0:0:0:0:
256,192,82029,1,0,0:0:0:0:
256,192,82191,1,0,0:0:0:0:
256,192,82354,1,8,0:0:0:0:
256,192,82516,1,0,0:0:0:0:
256,192,82678,1,8,0:0:0:0:
256,192,83002,1,8,0:0:0:0:
256,192,83164,1,0,0:0:0:0:
256,192,83489,1,0,0:0:0:0:
256,192,83651,1,8,0:0:0:0:
256,192,83813,1,0,0:0:0:0:
256,192,83975,1,8,0:0:0:0:
288,192,84137,1,0,0:0:0:0:
288,192,84300,1,4,0:0:0:0:
288,192,84624,1,0,0:0:0:0:
288,192,84786,1,0,0:0:0:0:
288,192,84948,1,8,0:0:0:0:
256,192,85110,1,0,0:0:0:0:
256,192,85191,1,0,0:0:0:0:
256,192,85272,1,0,0:0:0:0:
256,192,85435,1,4,0:0:0:0:
256,192,85759,1,4,0:0:0:0:
256,192,86083,1,4,0:0:0:0:
256,192,86408,1,4,0:0:0:0:
256,192,86894,1,4,0:0:0:0:
288,192,87056,1,0,0:0:0:0:
288,192,87138,1,0,0:0:0:0:
288,192,87219,1,8,0:0:0:0:
288,192,87381,1,0,0:0:0:0:
288,192,87705,1,0,0:0:0:0:
288,192,87786,1,0,0:0:0:0:
288,192,87867,1,8,0:0:0:0:
288,192,88029,1,0,0:0:0:0:
288,192,88354,1,0,0:0:0:0:
288,192,88435,1,0,0:0:0:0:
288,192,88516,1,8,0:0:0:0:
160,160,88678,1,0,0:0:0:0:
320,192,89002,1,0,0:0:0:0:
320,192,89083,1,0,0:0:0:0:
320,192,89164,1,8,0:0:0:0:
320,192,89327,1,0,0:0:0:0:
